I want to convert yuv2xyz or rgb2xyz

Questions involving a Windows version of FFmpeg.
Post Reply
zlstl
Posts: 1
Joined: Thu May 30, 2019 2:40 am

I want to convert yuv2xyz or rgb2xyz

Post by zlstl » Thu May 30, 2019 2:49 am

Can I convert yuv2xyz or rgb2xyz???

It is my command

Code: Select all

ffmpeg -i "myVideo.mp4" -an -profile:v 3 -cinema_mode 1 -prog_order 4 -pix_fmt xyz12le "./myVideo%10d.tiff"

ffmpeg version 4.1.1 Copyright (c) 2000-2019 the FFmpeg developers
  built with gcc 8.2.1 (GCC) 20190212
  configuration: --enable-gpl --enable-version3 --enable-sdl2 --enable-fontconfig --enable-gnutls --enable-iconv --enable-libass --enable-libbluray --enable-libfreetype --enable-libmp3lame --enable-libopencore-amrnb --enable-libopencore-amrwb --enable-libopenjpeg --enable-libopus --enable-libshine --enable-libsnappy --enable-libsoxr --enable-libtheora --enable-libtwolame --enable-libvpx --enable-libwavpack --enable-libwebp --enable-libx264 --enable-libx265 --enable-libxml2 --enable-libzimg --enable-lzma --enable-zlib --enable-gmp --enable-libvidstab --enable-libvorbis --enable-libvo-amrwbenc --enable-libmysofa --enable-libspeex --enable-libxvid --enable-libaom --enable-libmfx --enable-amf --enable-ffnvcodec --enable-cuvid --enable-d3d11va --enable-nvenc --enable-nvdec --enable-dxva2 --enable-avisynth
  libavutil      56. 22.100 / 56. 22.100
  libavcodec     58. 35.100 / 58. 35.100
  libavformat    58. 20.100 / 58. 20.100
  libavdevice    58.  5.100 / 58.  5.100
  libavfilter     7. 40.101 /  7. 40.101
  libswscale      5.  3.100 /  5.  3.100
  libswresample   3.  3.100 /  3.  3.100
  libpostproc    55.  3.100 / 55.  3.100
Input #0, mov,mp4,m4a,3gp,3g2,mj2, from 'myVideo.mp4':
  Metadata:
    major_brand     : isom
    minor_version   : 512
    compatible_brands: isomiso2avc1mp41
    encoder         : Lavf58.20.100
  Duration: 00:00:10.02, start: 0.000000, bitrate: 1672 kb/s
    Stream #0:0(und): Video: h264 (High) (avc1 / 0x31637661), yuv420p, 1280x720 [SAR 1:1 DAR 16:9], 1321 kb/s, 25 fps, 25 tbr, 12800 tbn, 50 tbc (default)
    Metadata:
      handler_name    : VideoHandler
    Stream #0:1(und): Audio: aac (LC) (mp4a / 0x6134706D), 48000 Hz, 5.1, fltp, 347 kb/s (default)
    Metadata:
      handler_name    : SoundHandler
Codec AVOption cinema_mode (Digital Cinema) specified for output file #0 (./myVideo%10d.tiff) has not been used for any stream. The most likely reason is either wrong type (e.g. a video option with no video streams) or that it is a private option of some encoder which was not actually used for any stream.
Codec AVOption prog_order (Progression Order) specified for output file #0 (./myVideo%10d.tiff) has not been used for any stream. The most likely reason is either wrong type (e.g. a video option with no video streams) or that it is a private option of some encoder which was not actually used for any stream.
Stream mapping:
  Stream #0:0 -> #0:0 (h264 (native) -> tiff (native))
Press [q] to stop, [?] for help
Incompatible pixel format 'xyz12le' for codec 'tiff', auto-selecting format 'rgb48le'
[swscaler @ 0000019ffff9ed40] No accelerated colorspace conversion found from yuv420p to rgb48le.
Output #0, image2, to './myVideo%10d.tiff':
  Metadata:
    major_brand     : isom
    minor_version   : 512
    compatible_brands: isomiso2avc1mp41
    encoder         : Lavf58.20.100
    Stream #0:0(und): Video: tiff, rgb48le, 1280x720 [SAR 1:1 DAR 16:9], q=2-31, 200 kb/s, 24 fps, 24 tbn, 24 tbc (default)
    Metadata:
      handler_name    : VideoHandler
      encoder         : Lavc58.35.100 tiff

Post Reply