ffmpeg (264 & 265) skip images

Questions involving a Windows version of FFmpeg.
Post Reply
dp792
Posts: 2
Joined: Thu Apr 05, 2018 1:30 pm

ffmpeg (264 & 265) skip images

Post by dp792 »

I have 1811 png files 1920*1080. When I try to create a video, in the final video some images are missing
pictures-here - https://yadi.sk/d/XdysUgBs3S9EHf

here are the arguments for the command line -framerate 30 -f image2 -i "d:\artscope\videoTemp-YouTube\%4d.PNG" -pix_fmt yuv420p -metadata artist="Dmitry Posudin" -metadata title="12stars" -c:v libx264 -b:v 15000k -y "d:\artscope\videoTemp-YouTube\12stars.mp4"


What's wrong?

Dmitri

llogan
Posts: 332
Joined: Fri Mar 14, 2014 3:29 am

Re: ffmpeg (264 & 265) skip images

Post by llogan »

Make sure all input files have the size width, height, and pixel format. Otherwise you will have to do some filtering.

If you want additional suggestions show the complete console output from your command.

dp792
Posts: 2
Joined: Thu Apr 05, 2018 1:30 pm

Re: ffmpeg (264 & 265) skip images

Post by dp792 »

Thanks for you reply
I would have clarified: not the loss/skip of images--but the loss of part images
video here = https://yadi.sk/d/XdysUgBs3S9EHf

complete console output
-framerate 30 -f image2 -i "d:\artscope\videoTemp-YouTube\%4d.PNG" -pix_fmt yuv420p -metadata artist="Dmitry Posudin" -metadata title="12stars" -c:v libx264 -b:v 15000k -y "d:\artscope\videoTemp-YouTube\12stars.mp4"
ffmpeg version N-90433-g5b31dd1c6b Copyright (c) 2000-2018 the FFmpeg developers
built with gcc 7.3.0 (GCC)
configuration: --enable-gpl --enable-version3 --enable-sdl2 --enable-bzlib --enable-fontconfig --enable-gnutls --enable-iconv --enable-libass --enable-libbluray --enable-libfreetype --enable-libmp3lame --enable-libopencore-amrnb --enable-libopencore-amrwb --enable-libopenjpeg --enable-libopus --enable-libshine --enable-libsnappy --enable-libsoxr --enable-libtheora --enable-libtwolame --enable-libvpx --enable-libwavpack --enable-libwebp --enable-libx264 --enable-libx265 --enable-libxml2 --enable-libzimg --enable-lzma --enable-zlib --enable-gmp --enable-libvidstab --enable-libvorbis --enable-libvo-amrwbenc --enable-libmysofa --enable-libspeex --enable-libxvid --enable-libmfx --enable-amf --enable-ffnvcodec --enable-cuvid --enable-d3d11va --enable-nvenc --enable-nvdec --enable-dxva2 --enable-avisynth
libavutil 56. 12.100 / 56. 12.100
libavcodec 58. 15.100 / 58. 15.100
libavformat 58. 10.100 / 58. 10.100
libavdevice 58. 2.100 / 58. 2.100
libavfilter 7. 13.100 / 7. 13.100
libswscale 5. 0.102 / 5. 0.102
libswresample 3. 0.101 / 3. 0.101
libpostproc 55. 0.100 / 55. 0.100
Input #0, image2, from 'd:\artscope\videoTemp-YouTube\%4d.PNG':
Duration: 00:01:00.37, start: 0.000000, bitrate: N/A
Stream #0:0: Video: png, rgba(pc), 1920x1080 [SAR 3779:3779 DAR 16:9], 30 tbr, 30 tbn, 30 tbc
Stream mapping:
Stream #0:0 -> #0:0 (png (native) -> h264 (libx264))
Press [q] to stop, [?] for help
[libx264 @ 07d58380] using SAR=1/1
[libx264 @ 07d58380] using cpu capabilities: MMX2 SSE2Fast SSSE3 SSE4.2 AVX FMA3 BMI2 AVX2
[libx264 @ 07d58380] profile High, level 4.1
[libx264 @ 07d58380] 264 - core 155 r2901 7d0ff22 - H.264/MPEG-4 AVC codec - Copyleft 2003-2018 - http://www.videolan.org/x264.html - options: cabac=1 ref=3 deblock=1:0:0 analyse=0x3:0x113 me=hex subme=7 psy=1 psy_rd=1.00:0.00 mixed_ref=1 me_range=16 chroma_me=1 trellis=1 8x8dct=1 cqm=0 deadzone=21,11 fast_pskip=1 chroma_qp_offset=-2 threads=12 lookahead_threads=2 sliced_threads=0 nr=0 decimate=1 interlaced=0 bluray_compat=0 constrained_intra=0 bframes=3 b_pyramid=2 b_adapt=1 b_bias=0 direct=1 weightb=1 open_gop=0 weightp=2 keyint=250 keyint_min=25 scenecut=40 intra_refresh=0 rc_lookahead=40 rc=abr mbtree=1 bitrate=15000 ratetol=1.0 qcomp=0.60 qpmin=0 qpmax=69 qpstep=4 ip_ratio=1.40 aq=1:1.00
Output #0, mp4, to 'd:\artscope\videoTemp-YouTube\12stars.mp4':
Metadata:
artist : Dmitry Posudin
title : 12stars
encoder : Lavf58.10.100
Stream #0:0: Video: h264 (libx264) (avc1 / 0x31637661), yuv420p, 1920x1080 [SAR 1:1 DAR 16:9], q=-1--1, 15000 kb/s, 30 fps, 15360 tbn, 30 tbc
Metadata:
encoder : Lavc58.15.100 libx264
Side data:
cpb: bitrate max/min/avg: 0/0/15000000 buffer size: 0 vbv_delay: -1
frame= 18 fps=0.0 q=0.0 size= 0kB time=00:00:00.00 bitrate=N/A speed= 0x
frame= 41 fps= 41 q=0.0 size= 0kB time=00:00:00.00 bitrate=N/A speed= 0x
frame= 47 fps= 31 q=0.0 size= 0kB time=00:00:00.00 bitrate=N/A speed= 0x
frame= 58 fps= 25 q=21.0 size= 1280kB time=-00:00:00.03 bitrate=N/A speed=N/A
frame= 64 fps= 22 q=33.0 size= 2816kB time=00:00:00.16 bitrate=138360.1kbits/s speed=0.0575x
frame= 71 fps= 20 q=39.0 size= 4352kB time=00:00:00.40 bitrate=89115.4kbits/s speed=0.115x
frame= 79 fps= 20 q=38.0 size= 4608kB time=00:00:00.66 bitrate=56618.1kbits/s speed=0.168x
frame= 89 fps= 20 q=37.0 size= 4864kB time=00:00:01.00 bitrate=39843.7kbits/s speed=0.222x
frame= 95 fps= 19 q=36.0 size= 5120kB time=00:00:01.20 bitrate=34951.0kbits/s speed=0.239x
frame= 105 fps= 19 q=36.0 size= 5376kB time=00:00:01.53 bitrate=28720.9kbits/s speed=0.278x
frame= 112 fps= 18 q=35.0 size= 5632kB time=00:00:01.76 bitrate=26114.7kbits/s speed=0.291x
frame= 120 fps= 18 q=35.0 size= 6144kB time=00:00:02.03 bitrate=24752.7kbits/s speed=0.309x
frame= 128 fps= 18 q=35.0 size= 6400kB time=00:00:02.30 bitrate=22794.7kbits/s speed=0.323x
frame= 136 fps= 18 q=35.0 size= 6912kB time=00:00:02.56 bitrate=22060.5kbits/s speed=0.334x
frame= 147 fps= 18 q=35.0 size= 7424kB time=00:00:02.93 bitrate=20732.9kbits/s speed=0.351x
frame= 156 fps= 18 q=35.0 size= 7936kB time=00:00:03.23 bitrate=20106.4kbits/s speed=0.364x
frame= 163 fps= 17 q=35.0 size= 8192kB time=00:00:03.46 bitrate=19358.1kbits/s speed=0.369x
frame= 174 fps= 18 q=35.0 size= 8960kB time=00:00:03.83 bitrate=19147.7kbits/s speed=0.387x
frame= 179 fps= 17 q=35.0 size= 9216kB time=00:00:04.00 bitrate=18874.2kbits/s speed=0.383x
frame= 187 fps= 17 q=35.0 size= 9472kB time=00:00:04.26 bitrate=18186.1kbits/s speed=0.387x
frame= 199 fps= 17 q=35.0 size= 10240kB time=00:00:04.66 bitrate=17975.4kbits/s speed=0.394x
frame= 211 fps= 17 q=35.0 size= 11008kB time=00:00:05.06 bitrate=17798.0kbits/s speed=0.401x
frame= 223 fps= 17 q=35.0 size= 11776kB time=00:00:05.46 bitrate=17646.6kbits/s speed=0.409x
frame= 233 fps= 17 q=35.0 size= 12288kB time=00:00:05.80 bitrate=17355.6kbits/s speed=0.418x
frame= 239 fps= 17 q=35.0 size= 12544kB time=00:00:06.00 bitrate=17126.6kbits/s speed=0.416x
frame= 247 fps= 16 q=35.0 size= 13056kB time=00:00:06.26 bitrate=17067.1kbits/s speed=0.418x
frame= 258 fps= 17 q=35.0 size= 13824kB time=00:00:06.63 bitrate=17072.2kbits/s speed=0.428x
frame= 266 fps= 17 q=35.0 size= 14336kB time=00:00:06.90 bitrate=17020.3kbits/s speed=0.431x
frame= 271 fps= 16 q=35.0 size= 14592kB time=00:00:07.06 bitrate=16915.6kbits/s speed=0.427x
frame= 282 fps= 17 q=35.0 size= 15104kB time=00:00:07.43 bitrate=16645.5kbits/s speed=0.435x
frame= 287 fps= 16 q=35.0 size= 15616kB time=00:00:07.60 bitrate=16832.3kbits/s speed=0.431x
frame= 295 fps= 16 q=35.0 size= 15872kB time=00:00:07.86 bitrate=16528.3kbits/s speed=0.433x
frame= 303 fps= 16 q=35.0 size= 16384kB time=00:00:08.13 bitrate=16502.1kbits/s speed=0.435x
frame= 313 fps= 16 q=35.0 size= 17152kB time=00:00:08.46 bitrate=16595.5kbits/s speed=0.438x
frame= 325 fps= 16 q=35.0 size= 17920kB time=00:00:08.86 bitrate=16556.4kbits/s speed=0.443x
frame= 333 fps= 16 q=35.0 size= 18432kB time=00:00:09.13 bitrate=16532.2kbits/s speed=0.443x
frame= 341 fps= 16 q=35.0 size= 18944kB time=00:00:09.40 bitrate=16509.4kbits/s speed=0.443x
frame= 349 fps= 16 q=35.0 size= 19456kB time=00:00:09.66 bitrate=16487.9kbits/s speed=0.444x
frame= 358 fps= 16 q=35.0 size= 19968kB time=00:00:09.96 bitrate=16412.4kbits/s speed=0.447x
frame= 365 fps= 16 q=35.0 size= 20224kB time=00:00:10.20 bitrate=16242.6kbits/s speed=0.445x
frame= 373 fps= 16 q=35.0 size= 20736kB time=00:00:10.46 bitrate=16229.5kbits/s speed=0.444x
frame= 385 fps= 16 q=35.0 size= 21504kB time=00:00:10.86 bitrate=16211.1kbits/s speed=0.443x
frame= 397 fps= 16 q=35.0 size= 22272kB time=00:00:11.26 bitrate=16193.9kbits/s speed=0.445x
frame= 409 fps= 16 q=35.0 size= 23040kB time=00:00:11.66 bitrate=16178.0kbits/s speed=0.446x
frame= 421 fps= 16 q=35.0 size= 23808kB time=00:00:12.06 bitrate=16163.1kbits/s speed=0.447x
frame= 433 fps= 16 q=35.0 size= 24576kB time=00:00:12.46 bitrate=16149.1kbits/s speed=0.449x
frame= 444 fps= 16 q=35.0 size= 25344kB time=00:00:12.83 bitrate=16178.0kbits/s speed=0.454x
frame= 449 fps= 16 q=35.0 size= 25856kB time=00:00:13.00 bitrate=16293.2kbits/s speed=0.452x
frame= 457 fps= 16 q=35.0 size= 26112kB time=00:00:13.26 bitrate=16123.8kbits/s speed=0.452x
frame= 469 fps= 16 q=35.0 size= 26880kB time=00:00:13.66 bitrate=16112.2kbits/s speed=0.453x
frame= 480 fps= 16 q=35.0 size= 27392kB time=00:00:14.03 bitrate=15990.1kbits/s speed=0.457x
frame= 489 fps= 16 q=35.0 size= 27904kB time=00:00:14.33 bitrate=15948.1kbits/s speed=0.455x
frame= 501 fps= 16 q=35.0 size= 28416kB time=00:00:14.73 bitrate=15799.8kbits/s speed=0.457x
frame= 513 fps= 16 q=35.0 size= 29184kB time=00:00:15.13 bitrate=15797.9kbits/s speed=0.459x
frame= 525 fps= 16 q=35.0 size= 29952kB time=00:00:15.53 bitrate=15796.1kbits/s speed=0.462x
frame= 533 fps= 16 q=35.0 size= 30208kB time=00:00:15.80 bitrate=15662.2kbits/s speed=0.461x
frame= 541 fps= 16 q=35.0 size= 30720kB time=00:00:16.06 bitrate=15663.3kbits/s speed=0.462x
frame= 549 fps= 16 q=35.0 size= 31232kB time=00:00:16.33 bitrate=15664.4kbits/s speed=0.463x
frame= 558 fps= 16 q=35.0 size= 32000kB time=00:00:16.63 bitrate=15760.1kbits/s speed=0.464x
frame= 566 fps= 16 q=35.0 size= 32512kB time=00:00:16.90 bitrate=15759.6kbits/s speed=0.465x
frame= 575 fps= 16 q=35.0 size= 33024kB time=00:00:17.20 bitrate=15728.6kbits/s speed=0.464x
frame= 583 fps= 16 q=35.0 size= 33280kB time=00:00:17.46 bitrate=15608.5kbits/s speed=0.465x
frame= 591 fps= 16 q=35.0 size= 33792kB time=00:00:17.73 bitrate=15610.3kbits/s speed=0.465x
frame= 601 fps= 16 q=35.0 size= 34304kB time=00:00:18.06 bitrate=15554.5kbits/s speed=0.468x
frame= 607 fps= 16 q=35.0 size= 34816kB time=00:00:18.26 bitrate=15613.8kbits/s speed=0.466x
frame= 619 fps= 16 q=35.0 size= 35584kB time=00:00:18.66 bitrate=15616.3kbits/s speed=0.468x
frame= 630 fps= 16 q=35.0 size= 36096kB time=00:00:19.03 bitrate=15535.8kbits/s speed=0.471x
frame= 636 fps= 16 q=35.0 size= 36352kB time=00:00:19.23 bitrate=15483.3kbits/s speed=0.469x
frame= 647 fps= 16 q=35.0 size= 37120kB time=00:00:19.60 bitrate=15514.6kbits/s speed=0.471x
frame= 655 fps= 16 q=35.0 size= 37376kB time=00:00:19.86 bitrate=15411.9kbits/s speed=0.471x
frame= 666 fps= 16 q=35.0 size= 37888kB time=00:00:20.23 bitrate=15339.9kbits/s speed=0.474x
frame= 675 fps= 16 q=35.0 size= 38400kB time=00:00:20.53 bitrate=15320.1kbits/s speed=0.475x
frame= 686 fps= 16 q=34.0 size= 38912kB time=00:00:20.90 bitrate=15252.0kbits/s speed=0.478x
frame= 691 fps= 16 q=34.0 size= 39168kB time=00:00:21.06 bitrate=15230.9kbits/s speed=0.476x
frame= 703 fps= 16 q=34.0 size= 39680kB time=00:00:21.46 bitrate=15142.5kbits/s speed=0.477x
frame= 715 fps= 16 q=34.0 size= 40192kB time=00:00:21.86 bitrate=15057.3kbits/s speed=0.48x
frame= 727 fps= 16 q=34.0 size= 40704kB time=00:00:22.26 bitrate=14975.1kbits/s speed=0.482x
frame= 735 fps= 16 q=34.0 size= 41216kB time=00:00:22.53 bitrate=14984.1kbits/s speed=0.482x
frame= 743 fps= 16 q=34.0 size= 41472kB time=00:00:22.80 bitrate=14900.8kbits/s speed=0.481x
frame= 755 fps= 16 q=34.0 size= 41984kB time=00:00:23.20 bitrate=14824.7kbits/s speed=0.482x
frame= 767 fps= 16 q=33.0 size= 42496kB time=00:00:23.60 bitrate=14751.1kbits/s speed=0.483x
frame= 779 fps= 16 q=33.0 size= 43008kB time=00:00:24.00 bitrate=14680.0kbits/s speed=0.484x
frame= 791 fps= 16 q=33.0 size= 43520kB time=00:00:24.40 bitrate=14611.3kbits/s speed=0.485x
frame= 799 fps= 16 q=33.0 size= 43776kB time=00:00:24.66 bitrate=14538.3kbits/s speed=0.485x
frame= 809 fps= 16 q=33.0 size= 44288kB time=00:00:25.00 bitrate=14512.3kbits/s speed=0.486x
frame= 817 fps= 16 q=33.0 size= 44544kB time=00:00:25.26 bitrate=14442.1kbits/s speed=0.486x
frame= 827 fps= 16 q=33.0 size= 44800kB time=00:00:25.60 bitrate=14336.0kbits/s speed=0.488x
frame= 837 fps= 16 q=32.0 size= 45312kB time=00:00:25.93 bitrate=14313.4kbits/s speed=0.489x
frame= 845 fps= 16 q=32.0 size= 45824kB time=00:00:26.20 bitrate=14327.8kbits/s speed=0.489x
frame= 857 fps= 16 q=32.0 size= 46336kB time=00:00:26.60 bitrate=14270.1kbits/s speed=0.491x
frame= 865 fps= 16 q=32.0 size= 46592kB time=00:00:26.86 bitrate=14206.5kbits/s speed=0.491x
frame= 876 fps= 16 q=32.0 size= 47104kB time=00:00:27.23 bitrate=14169.2kbits/s speed=0.492x
frame= 884 fps= 16 q=32.0 size= 47616kB time=00:00:27.50 bitrate=14184.4kbits/s speed=0.492x
frame= 896 fps= 16 q=32.0 size= 48128kB time=00:00:27.90 bitrate=14131.3kbits/s speed=0.492x
frame= 908 fps= 16 q=32.0 size= 48896kB time=00:00:28.30 bitrate=14153.9kbits/s speed=0.492x
frame= 920 fps= 16 q=32.0 size= 49664kB time=00:00:28.70 bitrate=14175.9kbits/s speed=0.492x
frame= 932 fps= 16 q=32.0 size= 50432kB time=00:00:29.10 bitrate=14197.2kbits/s speed=0.493x
frame= 942 fps= 16 q=32.0 size= 50944kB time=00:00:29.43 bitrate=14178.9kbits/s speed=0.494x
frame= 948 fps= 16 q=32.0 size= 51456kB time=00:00:29.63 bitrate=14224.8kbits/s speed=0.493x
frame= 957 fps= 16 q=32.0 size= 51968kB time=00:00:29.93 bitrate=14222.3kbits/s speed=0.494x
frame= 964 fps= 16 q=32.0 size= 52480kB time=00:00:30.16 bitrate=14251.3kbits/s speed=0.493x
frame= 975 fps= 16 q=32.0 size= 53248kB time=00:00:30.53 bitrate=14286.3kbits/s speed=0.494x
frame= 980 fps= 16 q=32.0 size= 53504kB time=00:00:30.70 bitrate=14277.0kbits/s speed=0.493x
frame= 988 fps= 16 q=32.0 size= 54016kB time=00:00:30.96 bitrate=14289.5kbits/s speed=0.492x
frame= 998 fps= 16 q=32.0 size= 54528kB time=00:00:31.30 bitrate=14271.3kbits/s speed=0.493x
frame= 1004 fps= 16 q=32.0 size= 55040kB time=00:00:31.50 bitrate=14313.9kbits/s speed=0.492x
frame= 1012 fps= 16 q=32.0 size= 55552kB time=00:00:31.76 bitrate=14325.8kbits/s speed=0.492x
frame= 1020 fps= 16 q=32.0 size= 56064kB time=00:00:32.03 bitrate=14337.4kbits/s speed=0.492x
frame= 1028 fps= 16 q=32.0 size= 56576kB time=00:00:32.30 bitrate=14348.9kbits/s speed=0.491x
frame= 1040 fps= 16 q=32.0 size= 57344kB time=00:00:32.70 bitrate=14365.8kbits/s speed=0.49x
frame= 1052 fps= 16 q=32.0 size= 58112kB time=00:00:33.10 bitrate=14382.3kbits/s speed=0.491x
frame= 1062 fps= 16 q=32.0 size= 59136kB time=00:00:33.43 bitrate=14489.8kbits/s speed=0.492x
frame= 1067 fps= 16 q=32.0 size= 59392kB time=00:00:33.60 bitrate=14480.3kbits/s speed=0.49x
frame= 1075 fps= 16 q=32.0 size= 59904kB time=00:00:33.86 bitrate=14490.1kbits/s speed=0.49x
frame= 1083 fps= 16 q=32.0 size= 60416kB time=00:00:34.13 bitrate=14499.8kbits/s speed=0.49x
frame= 1091 fps= 16 q=32.0 size= 60672kB time=00:00:34.40 bitrate=14448.4kbits/s speed=0.49x
frame= 1099 fps= 16 q=32.0 size= 61184kB time=00:00:34.66 bitrate=14458.2kbits/s speed=0.49x
frame= 1107 fps= 16 q=32.0 size= 61696kB time=00:00:34.93 bitrate=14467.9kbits/s speed=0.49x
frame= 1112 fps= 15 q=32.0 size= 62208kB time=00:00:35.10 bitrate=14518.7kbits/s speed=0.489x
frame= 1119 fps= 15 q=32.0 size= 62720kB time=00:00:35.33 bitrate=14541.6kbits/s speed=0.489x
frame= 1127 fps= 15 q=33.0 size= 63488kB time=00:00:35.60 bitrate=14609.4kbits/s speed=0.489x
frame= 1135 fps= 15 q=33.0 size= 64000kB time=00:00:35.86 bitrate=14617.7kbits/s speed=0.488x
frame= 1143 fps= 15 q=33.0 size= 64768kB time=00:00:36.13 bitrate=14683.9kbits/s speed=0.487x
frame= 1151 fps= 15 q=33.0 size= 65280kB time=00:00:36.40 bitrate=14691.6kbits/s speed=0.487x
frame= 1156 fps= 15 q=33.0 size= 65792kB time=00:00:36.56 bitrate=14739.3kbits/s speed=0.486x
frame= 1166 fps= 15 q=33.0 size= 66560kB time=00:00:36.90 bitrate=14776.7kbits/s speed=0.487x
frame= 1172 fps= 15 q=33.0 size= 66816kB time=00:00:37.10 bitrate=14753.5kbits/s speed=0.486x
frame= 1179 fps= 15 q=33.0 size= 67584kB time=00:00:37.33 bitrate=14829.8kbits/s speed=0.485x
frame= 1189 fps= 15 q=33.0 size= 68352kB time=00:00:37.66 bitrate=14865.6kbits/s speed=0.486x
frame= 1195 fps= 15 q=33.0 size= 68864kB time=00:00:37.86 bitrate=14897.9kbits/s speed=0.484x
frame= 1203 fps= 15 q=33.0 size= 69376kB time=00:00:38.13 bitrate=14903.7kbits/s speed=0.484x
frame= 1211 fps= 15 q=33.0 size= 70144kB time=00:00:38.40 bitrate=14964.0kbits/s speed=0.484x
frame= 1219 fps= 15 q=33.0 size= 70656kB time=00:00:38.66 bitrate=14969.3kbits/s speed=0.483x
frame= 1227 fps= 15 q=33.0 size= 71424kB time=00:00:38.93 bitrate=15028.4kbits/s speed=0.483x
frame= 1235 fps= 15 q=33.0 size= 71936kB time=00:00:39.20 bitrate=15033.1kbits/s speed=0.483x
frame= 1242 fps= 15 q=33.0 size= 72448kB time=00:00:39.43 bitrate=15050.6kbits/s speed=0.483x
frame= 1251 fps= 15 q=34.0 size= 73216kB time=00:00:39.73 bitrate=15095.3kbits/s speed=0.482x
frame= 1263 fps= 15 q=34.0 size= 73984kB time=00:00:40.13 bitrate=15101.6kbits/s speed=0.482x
frame= 1273 fps= 15 q=34.0 size= 74752kB time=00:00:40.46 bitrate=15132.6kbits/s speed=0.483x
frame= 1280 fps= 15 q=34.0 size= 75264kB time=00:00:40.70 bitrate=15148.9kbits/s speed=0.483x
frame= 1287 fps= 15 q=34.0 size= 75776kB time=00:00:40.93 bitrate=15165.1kbits/s speed=0.482x
frame= 1295 fps= 15 q=34.0 size= 76288kB time=00:00:41.20 bitrate=15168.7kbits/s speed=0.482x
frame= 1303 fps= 15 q=34.0 size= 77056kB time=00:00:41.46 bitrate=15222.9kbits/s speed=0.481x
frame= 1313 fps= 15 q=34.0 size= 78080kB time=00:00:41.80 bitrate=15302.2kbits/s speed=0.482x
frame= 1320 fps= 15 q=34.0 size= 78592kB time=00:00:42.03 bitrate=15317.0kbits/s speed=0.481x
frame= 1329 fps= 15 q=34.0 size= 79104kB time=00:00:42.33 bitrate=15307.5kbits/s speed=0.481x
frame= 1341 fps= 15 q=34.0 size= 80128kB time=00:00:42.73 bitrate=15360.6kbits/s speed=0.481x
frame= 1353 fps= 15 q=34.0 size= 80896kB time=00:00:43.13 bitrate=15364.0kbits/s speed=0.48x
frame= 1364 fps= 15 q=34.0 size= 81920kB time=00:00:43.50 bitrate=15427.3kbits/s speed=0.482x
frame= 1369 fps= 15 q=34.0 size= 82176kB time=00:00:43.66 bitrate=15416.5kbits/s speed=0.48x
frame= 1377 fps= 15 q=34.0 size= 82688kB time=00:00:43.93 bitrate=15418.3kbits/s speed=0.48x
frame= 1385 fps= 15 q=34.0 size= 83200kB time=00:00:44.20 bitrate=15420.2kbits/s speed=0.481x
frame= 1393 fps= 15 q=34.0 size= 83712kB time=00:00:44.46 bitrate=15422.1kbits/s speed=0.48x
frame= 1402 fps= 15 q=34.0 size= 84224kB time=00:00:44.76 bitrate=15412.4kbits/s speed=0.48x
frame= 1410 fps= 15 q=35.0 size= 84992kB time=00:00:45.03 bitrate=15460.9kbits/s speed=0.48x
frame= 1419 fps= 15 q=35.0 size= 85504kB time=00:00:45.33 bitrate=15451.1kbits/s speed=0.481x
frame= 1429 fps= 15 q=35.0 size= 86016kB time=00:00:45.66 bitrate=15430.1kbits/s speed=0.48x
frame= 1441 fps= 15 q=35.0 size= 86784kB time=00:00:46.06 bitrate=15432.7kbits/s speed=0.481x
frame= 1450 fps= 15 q=34.0 size= 87296kB time=00:00:46.36 bitrate=15423.3kbits/s speed=0.481x
frame= 1457 fps= 15 q=34.0 size= 87552kB time=00:00:46.60 bitrate=15391.1kbits/s speed=0.481x
frame= 1466 fps= 15 q=34.0 size= 88064kB time=00:00:46.90 bitrate=15382.1kbits/s speed=0.481x
frame= 1473 fps= 15 q=34.0 size= 88576kB time=00:00:47.13 bitrate=15394.9kbits/s speed=0.481x
frame= 1481 fps= 15 q=34.0 size= 89088kB time=00:00:47.40 bitrate=15396.8kbits/s speed=0.481x
frame= 1490 fps= 15 q=34.0 size= 89344kB time=00:00:47.70 bitrate=15343.9kbits/s speed=0.481x
frame= 1497 fps= 15 q=34.0 size= 89856kB time=00:00:47.93 bitrate=15356.7kbits/s speed=0.481x
frame= 1507 fps= 15 q=34.0 size= 90368kB time=00:00:48.26 bitrate=15337.6kbits/s speed=0.482x
frame= 1514 fps= 15 q=34.0 size= 90624kB time=00:00:48.50 bitrate=15307.0kbits/s speed=0.482x
frame= 1521 fps= 15 q=34.0 size= 90880kB time=00:00:48.73 bitrate=15276.8kbits/s speed=0.482x
frame= 1532 fps= 15 q=34.0 size= 91392kB time=00:00:49.10 bitrate=15248.1kbits/s speed=0.483x
frame= 1538 fps= 15 q=34.0 size= 91648kB time=00:00:49.30 bitrate=15228.8kbits/s speed=0.482x
frame= 1545 fps= 15 q=34.0 size= 92160kB time=00:00:49.53 bitrate=15241.7kbits/s speed=0.482x
frame= 1555 fps= 15 q=34.0 size= 92416kB time=00:00:49.86 bitrate=15181.9kbits/s speed=0.483x
frame= 1563 fps= 15 q=34.0 size= 93184kB time=00:00:50.13 bitrate=15226.7kbits/s speed=0.482x
frame= 1575 fps= 15 q=34.0 size= 93696kB time=00:00:50.53 bitrate=15189.1kbits/s speed=0.482x
frame= 1587 fps= 15 q=34.0 size= 94208kB time=00:00:50.93 bitrate=15152.2kbits/s speed=0.483x
frame= 1599 fps= 15 q=34.0 size= 94976kB time=00:00:51.33 bitrate=15156.7kbits/s speed=0.483x
frame= 1611 fps= 15 q=34.0 size= 95488kB time=00:00:51.73 bitrate=15120.6kbits/s speed=0.483x
frame= 1623 fps= 15 q=34.0 size= 96256kB time=00:00:52.13 bitrate=15125.2kbits/s speed=0.484x
frame= 1630 fps= 15 q=34.0 size= 96768kB time=00:00:52.36 bitrate=15137.9kbits/s speed=0.483x
frame= 1638 fps= 15 q=34.0 size= 97024kB time=00:00:52.63 bitrate=15101.1kbits/s speed=0.483x
frame= 1647 fps= 15 q=34.0 size= 97536kB time=00:00:52.93 bitrate=15094.7kbits/s speed=0.484x
frame= 1654 fps= 15 q=34.0 size= 98048kB time=00:00:53.16 bitrate=15107.4kbits/s speed=0.483x
frame= 1663 fps= 15 q=34.0 size= 98560kB time=00:00:53.46 bitrate=15101.1kbits/s speed=0.484x
frame= 1670 fps= 15 q=34.0 size= 99072kB time=00:00:53.70 bitrate=15113.5kbits/s speed=0.484x
frame= 1678 fps= 15 q=34.0 size= 99584kB time=00:00:53.96 bitrate=15116.6kbits/s speed=0.483x
frame= 1687 fps= 15 q=34.0 size= 100096kB time=00:00:54.26 bitrate=15110.3kbits/s speed=0.483x
frame= 1694 fps= 15 q=34.0 size= 100608kB time=00:00:54.50 bitrate=15122.6kbits/s speed=0.483x
frame= 1702 fps= 15 q=34.0 size= 101120kB time=00:00:54.76 bitrate=15125.5kbits/s speed=0.483x
frame= 1711 fps= 15 q=34.0 size= 101632kB time=00:00:55.06 bitrate=15119.3kbits/s speed=0.483x
frame= 1717 fps= 15 q=34.0 size= 102144kB time=00:00:55.26 bitrate=15140.5kbits/s speed=0.482x
frame= 1726 fps= 15 q=34.0 size= 102656kB time=00:00:55.56 bitrate=15134.2kbits/s speed=0.482x
frame= 1737 fps= 15 q=34.0 size= 103424kB time=00:00:55.93 bitrate=15147.5kbits/s speed=0.483x
frame= 1743 fps= 15 q=34.0 size= 103680kB time=00:00:56.13 bitrate=15130.9kbits/s speed=0.482x
frame= 1750 fps= 15 q=34.0 size= 104192kB time=00:00:56.36 bitrate=15142.6kbits/s speed=0.482x
frame= 1762 fps= 15 q=34.0 size= 104704kB time=00:00:56.76 bitrate=15109.8kbits/s speed=0.482x
frame= 1772 fps= 15 q=34.0 size= 105216kB time=00:00:57.10 bitrate=15095.1kbits/s speed=0.483x
frame= 1781 fps= 15 q=34.0 size= 105728kB time=00:00:57.40 bitrate=15089.3kbits/s speed=0.483x
frame= 1788 fps= 15 q=34.0 size= 105984kB time=00:00:57.63 bitrate=15064.6kbits/s speed=0.483x
frame= 1797 fps= 15 q=34.0 size= 106240kB time=00:00:57.93 bitrate=15022.7kbits/s speed=0.483x
frame= 1806 fps= 15 q=34.0 size= 106496kB time=00:00:58.23 bitrate=14981.4kbits/s speed=0.484x
frame= 1811 fps= 15 q=-1.0 Lsize= 107748kB time=00:01:00.26 bitrate=14646.1kbits/s speed=0.494x
video:107725kB audio:0kB subtitle:0kB other streams:0kB global headers:0kB muxing overhead: 0.021635%
[libx264 @ 07d58380] frame I:8 Avg QP:24.50 size:365146
[libx264 @ 07d58380] frame P:457 Avg QP:32.92 size:122023
[libx264 @ 07d58380] frame B:1346 Avg QP:37.06 size: 38354
[libx264 @ 07d58380] consecutive B-frames: 0.8% 0.2% 0.5% 98.5%
[libx264 @ 07d58380] mb I I16..4: 18.0% 34.4% 47.6%
[libx264 @ 07d58380] mb P I16..4: 0.7% 6.6% 7.7% P16..4: 18.3% 19.4% 16.9% 0.0% 0.0% skip:30.3%
[libx264 @ 07d58380] mb B I16..4: 0.2% 0.6% 0.6% B16..8: 31.9% 14.4% 7.0% direct: 3.6% skip:41.8% L0:39.5% L1:43.5% BI:17.0%
[libx264 @ 07d58380] final ratefactor: 27.34
[libx264 @ 07d58380] 8x8 transform intra:43.2% inter:35.7%
[libx264 @ 07d58380] coded y,uvDC,uvAC intra: 66.8% 75.8% 73.4% inter: 17.0% 23.1% 15.3%
[libx264 @ 07d58380] i16 v,h,dc,p: 61% 24% 14% 2%
[libx264 @ 07d58380] i8 v,h,dc,ddl,ddr,vr,hd,vl,hu: 13% 9% 41% 5% 7% 6% 6% 6% 7%
[libx264 @ 07d58380] i4 v,h,dc,ddl,ddr,vr,hd,vl,hu: 16% 13% 20% 8% 9% 9% 9% 8% 8%
[libx264 @ 07d58380] i8c dc,h,v,p: 60% 16% 16% 8%
[libx264 @ 07d58380] Weighted P-Frames: Y:7.0% UV:7.0%
[libx264 @ 07d58380] ref P L0: 67.5% 13.5% 11.7% 7.1% 0.2%
[libx264 @ 07d58380] ref B L0: 90.4% 7.6% 1.9%
[libx264 @ 07d58380] ref B L1: 95.9% 4.1%
[libx264 @ 07d58380] kb/s:14618.58

Post Reply