XDCAM to H264 frame problem

Questions involving a Windows version of FFmpeg.
momocampo
Posts: 7
Joined: Wed Apr 04, 2018 12:17 pm

XDCAM to H264 frame problem

Post by momocampo » Wed Apr 04, 2018 12:22 pm

Hello,

Well, I'm new here but I think I need help to solve ffmpeg problem.
I want to transcode XDCAM mxf file into H264 mp4 file. I tried on 20sec video file but the result isn't perfect : I lost 2 frames !
My original xdcam file has 20 sec and 1 frame but the mp4 has 19sec and 24.
No problem if I start from a Iframe format (like DNxHD).

Someone can help me to understand?

Thanks a lot .

Kind Regards

roderrooder
Posts: 41
Joined: Tue Jan 02, 2018 10:41 am

Re: XDCAM to H264 frame problem

Post by roderrooder » Wed Apr 11, 2018 9:11 pm

Could you provide your command please?

momocampo
Posts: 7
Joined: Wed Apr 04, 2018 12:17 pm

Re: XDCAM to H264 frame problem

Post by momocampo » Thu Apr 12, 2018 11:32 am

Hello,

Well, my command is very simple, it's for example :
ffmpeg -i test.mxf -c:v libx264 -b:v 6000k -an out.mp4

I think it's HDCAM and his gop the problem.

Thanks ;)

roderrooder
Posts: 41
Joined: Tue Jan 02, 2018 10:41 am

Re: XDCAM to H264 frame problem

Post by roderrooder » Thu Apr 12, 2018 9:09 pm

That fact that it is almost exactly 36 frames short alludes that it's a time code problem, do you know that frame-rate of the device?

FFmpeg may be misinterpreting the time code, may need to specify the exact frame rate.

momocampo
Posts: 7
Joined: Wed Apr 04, 2018 12:17 pm

Re: XDCAM to H264 frame problem

Post by momocampo » Fri Apr 13, 2018 9:05 am

Hello Roderooder,

Thanks for your help :)
So, ok my original files are all 25 fps. You think I must specify framerate to avoid frame problem? I can try and come back for feedback.
;)

momocampo
Posts: 7
Joined: Wed Apr 04, 2018 12:17 pm

Re: XDCAM to H264 frame problem

Post by momocampo » Fri Apr 13, 2018 9:26 am

Hi,

Ok I tried and if my command is :

ffmpeg -i test.mxf -c:v libx264 -b:v 6000k -r 25 -an out.mp4

Same result, with a 20sec file which timecode begins to 09:59:45:00 , the program starts at 09:59:59:23 (must be 10:00:00:00 of course).
More, the output file duration is 19sec and 24 frame instead of 20 sec.

Strange.

;)

roderrooder
Posts: 41
Joined: Tue Jan 02, 2018 10:41 am

Re: XDCAM to H264 frame problem

Post by roderrooder » Fri Apr 13, 2018 6:10 pm

Apologies I guess I just presumed that your video was 60FPS.

Could you run this:

Code: Select all

ffprobe -i test.mfx -show_streams
And paste the output here?

momocampo
Posts: 7
Joined: Wed Apr 04, 2018 12:17 pm

Re: XDCAM to H264 frame problem

Post by momocampo » Mon Apr 16, 2018 8:04 am

Hello Rode,
Well here is the result but it's a simple XDCAM HD out from AVID.
C:\Users\ctvf2tech1\Desktop\ffmpeg-20180404-2accdd3-win32-static\bin>ffprobe -i rizzo.mxf -show_str
ffprobe version N-90610-g2accdd3871 Copyright (c) 2007-2018 the FFmpeg developers
built with gcc 7.3.0 (GCC)
configuration: --enable-gpl --enable-version3 --enable-sdl2 --enable-bzlib --enable-fontconfig --
le-libbluray --enable-libfreetype --enable-libmp3lame --enable-libopencore-amrnb --enable-libopenco
able-libshine --enable-libsnappy --enable-libsoxr --enable-libtheora --enable-libtwolame --enable-l
-libx264 --enable-libx265 --enable-libxml2 --enable-libzimg --enable-lzma --enable-zlib --enable-gm
ibvo-amrwbenc --enable-libmysofa --enable-libspeex --enable-libxvid --enable-libaom --enable-libmfx
nable-d3d11va --enable-nvenc --enable-nvdec --enable-dxva2 --enable-avisynth
libavutil 56. 13.100 / 56. 13.100
libavcodec 58. 17.100 / 58. 17.100
libavformat 58. 10.100 / 58. 10.100
libavdevice 58. 2.100 / 58. 2.100
libavfilter 7. 14.100 / 7. 14.100
libswscale 5. 0.102 / 5. 0.102
libswresample 3. 0.101 / 3. 0.101
libpostproc 55. 0.100 / 55. 0.100
Input #0, mxf, from 'rizzo.mxf':
Metadata:
uid : f1683076-989c-8b43-abd7-ad3c40fadf2d
generation_uid : 4b3fd7e2-88ec-3744-939a-f2802bfd67dd
company_name : AVID
product_name : TRMG
product_version : 3.01
product_uid : 00000000-0000-0000-0000-000000000000
modification_date: 2018-04-03T13:14:56.000000Z
material_package_umid: 0x060A2B340101010501010D1313000000A46AA3897E798246BEB4ECEBCE033271
timecode : 09:59:45:00
Duration: 00:00:20.04, start: 0.000000, bitrate: 60142 kb/s
Stream #0:0: Video: mpeg2video (4:2:2), yuv422p(tv, bt709, top first), 1920x1080 [SAR 1:1 DAR 1
Metadata:
file_package_umid: 0x060A2B340101010501010D13130000009CDF834306CBFD4D8484467DCDB7A9AD
Stream #0:1: Audio: pcm_s24le, 48000 Hz, 1 channels, s32 (24 bit), 1152 kb/s
Metadata:
file_package_umid: 0x060A2B340101010501010D13130000009CDF834306CBFD4D8484467DCDB7A9AD
Stream #0:2: Audio: pcm_s24le, 48000 Hz, 1 channels, s32 (24 bit), 1152 kb/s
Metadata:
file_package_umid: 0x060A2B340101010501010D13130000009CDF834306CBFD4D8484467DCDB7A9AD
Stream #0:3: Audio: pcm_s24le, 48000 Hz, 1 channels, s32 (24 bit), 1152 kb/s
Metadata:
file_package_umid: 0x060A2B340101010501010D13130000009CDF834306CBFD4D8484467DCDB7A9AD
Stream #0:4: Audio: pcm_s24le, 48000 Hz, 1 channels, s32 (24 bit), 1152 kb/s
Metadata:
file_package_umid: 0x060A2B340101010501010D13130000009CDF834306CBFD4D8484467DCDB7A9AD
Stream #0:5: Audio: pcm_s24le, 48000 Hz, 1 channels, s32 (24 bit), 1152 kb/s
Metadata:
file_package_umid: 0x060A2B340101010501010D13130000009CDF834306CBFD4D8484467DCDB7A9AD
Stream #0:6: Audio: pcm_s24le, 48000 Hz, 1 channels, s32 (24 bit), 1152 kb/s
Metadata:
file_package_umid: 0x060A2B340101010501010D13130000009CDF834306CBFD4D8484467DCDB7A9AD
Stream #0:7: Audio: pcm_s24le, 48000 Hz, 1 channels, s32 (24 bit), 1152 kb/s
Metadata:
file_package_umid: 0x060A2B340101010501010D13130000009CDF834306CBFD4D8484467DCDB7A9AD
Stream #0:8: Audio: pcm_s24le, 48000 Hz, 1 channels, s32 (24 bit), 1152 kb/s
Metadata:
file_package_umid: 0x060A2B340101010501010D13130000009CDF834306CBFD4D8484467DCDB7A9AD
[STREAM]
index=0
codec_name=mpeg2video
codec_long_name=MPEG-2 video
profile=4:2:2
codec_type=video
codec_time_base=1/25
codec_tag_string=[0][0][0][0]
codec_tag=0x0000
width=1920
height=1080
coded_width=0
coded_height=0
has_b_frames=1
sample_aspect_ratio=1:1
display_aspect_ratio=16:9
pix_fmt=yuv422p
level=2
color_range=tv
color_space=bt709
color_transfer=bt709
color_primaries=bt709
chroma_location=topleft
field_order=tt
timecode=N/A
refs=1
id=N/A
r_frame_rate=25/1
avg_frame_rate=25/1
time_base=1/25
start_pts=0
start_time=0.000000
duration_ts=501
duration=20.040000
bit_rate=50000000
max_bit_rate=N/A
bits_per_raw_sample=N/A
nb_frames=N/A
nb_read_frames=N/A
nb_read_packets=N/A
DISPOSITION:default=0
DISPOSITION:dub=0
DISPOSITION:original=0
DISPOSITION:comment=0
DISPOSITION:lyrics=0
DISPOSITION:karaoke=0
DISPOSITION:forced=0
DISPOSITION:hearing_impaired=0
DISPOSITION:visual_impaired=0
DISPOSITION:clean_effects=0
DISPOSITION:attached_pic=0
DISPOSITION:timed_thumbnails=0
TAG:file_package_umid=0x060A2B340101010501010D13130000009CDF834306CBFD4D8484467DCDB7A9AD
[/STREAM]
[STREAM]
index=1
codec_name=pcm_s24le
codec_long_name=PCM signed 24-bit little-endian
profile=unknown
codec_type=audio
codec_time_base=1/48000
codec_tag_string=[0][0][0][0]
codec_tag=0x0000
sample_fmt=s32
sample_rate=48000
channels=1
channel_layout=unknown
bits_per_sample=24
id=N/A
r_frame_rate=0/0
avg_frame_rate=0/0
time_base=1/48000
start_pts=0
start_time=0.000000
duration_ts=961920
duration=20.040000
bit_rate=1152000
max_bit_rate=N/A
bits_per_raw_sample=24
nb_frames=N/A
nb_read_frames=N/A
nb_read_packets=N/A
DISPOSITION:default=0
DISPOSITION:dub=0
DISPOSITION:original=0
DISPOSITION:comment=0
DISPOSITION:lyrics=0
DISPOSITION:karaoke=0
DISPOSITION:forced=0
DISPOSITION:hearing_impaired=0
DISPOSITION:visual_impaired=0
DISPOSITION:clean_effects=0
DISPOSITION:attached_pic=0
DISPOSITION:timed_thumbnails=0
TAG:file_package_umid=0x060A2B340101010501010D13130000009CDF834306CBFD4D8484467DCDB7A9AD
[/STREAM]
[STREAM]
index=2
codec_name=pcm_s24le
codec_long_name=PCM signed 24-bit little-endian
profile=unknown
codec_type=audio
codec_time_base=1/48000
codec_tag_string=[0][0][0][0]
codec_tag=0x0000
sample_fmt=s32
sample_rate=48000
channels=1
channel_layout=unknown
bits_per_sample=24
id=N/A
r_frame_rate=0/0
avg_frame_rate=0/0
time_base=1/48000
start_pts=0
start_time=0.000000
duration_ts=961920
duration=20.040000
bit_rate=1152000
max_bit_rate=N/A
bits_per_raw_sample=24
nb_frames=N/A
nb_read_frames=N/A
nb_read_packets=N/A
DISPOSITION:default=0
DISPOSITION:dub=0
DISPOSITION:original=0
DISPOSITION:comment=0
DISPOSITION:lyrics=0
DISPOSITION:karaoke=0
DISPOSITION:forced=0
DISPOSITION:hearing_impaired=0
DISPOSITION:visual_impaired=0
DISPOSITION:clean_effects=0
DISPOSITION:attached_pic=0
DISPOSITION:timed_thumbnails=0
TAG:file_package_umid=0x060A2B340101010501010D13130000009CDF834306CBFD4D8484467DCDB7A9AD
[/STREAM]
[STREAM]
index=3
codec_name=pcm_s24le
codec_long_name=PCM signed 24-bit little-endian
profile=unknown
codec_type=audio
codec_time_base=1/48000
codec_tag_string=[0][0][0][0]
codec_tag=0x0000
sample_fmt=s32
sample_rate=48000
channels=1
channel_layout=unknown
bits_per_sample=24
id=N/A
r_frame_rate=0/0
avg_frame_rate=0/0
time_base=1/48000
start_pts=0
start_time=0.000000
duration_ts=961920
duration=20.040000
bit_rate=1152000
max_bit_rate=N/A
bits_per_raw_sample=24
nb_frames=N/A
nb_read_frames=N/A
nb_read_packets=N/A
DISPOSITION:default=0
DISPOSITION:dub=0
DISPOSITION:original=0
DISPOSITION:comment=0
DISPOSITION:lyrics=0
DISPOSITION:karaoke=0
DISPOSITION:forced=0
DISPOSITION:hearing_impaired=0
DISPOSITION:visual_impaired=0
DISPOSITION:clean_effects=0
DISPOSITION:attached_pic=0
DISPOSITION:timed_thumbnails=0
TAG:file_package_umid=0x060A2B340101010501010D13130000009CDF834306CBFD4D8484467DCDB7A9AD
[/STREAM]
[STREAM]
index=4
codec_name=pcm_s24le
codec_long_name=PCM signed 24-bit little-endian
profile=unknown
codec_type=audio
codec_time_base=1/48000
codec_tag_string=[0][0][0][0]
codec_tag=0x0000
sample_fmt=s32
sample_rate=48000
channels=1
channel_layout=unknown
bits_per_sample=24
id=N/A
r_frame_rate=0/0
avg_frame_rate=0/0
time_base=1/48000
start_pts=0
start_time=0.000000
duration_ts=961920
duration=20.040000
bit_rate=1152000
max_bit_rate=N/A
bits_per_raw_sample=24
nb_frames=N/A
nb_read_frames=N/A
nb_read_packets=N/A
DISPOSITION:default=0
DISPOSITION:dub=0
DISPOSITION:original=0
DISPOSITION:comment=0
DISPOSITION:lyrics=0
DISPOSITION:karaoke=0
DISPOSITION:forced=0
DISPOSITION:hearing_impaired=0
DISPOSITION:visual_impaired=0
DISPOSITION:clean_effects=0
DISPOSITION:attached_pic=0
DISPOSITION:timed_thumbnails=0
TAG:file_package_umid=0x060A2B340101010501010D13130000009CDF834306CBFD4D8484467DCDB7A9AD
[/STREAM]
[STREAM]
index=5
codec_name=pcm_s24le
codec_long_name=PCM signed 24-bit little-endian
profile=unknown
codec_type=audio
codec_time_base=1/48000
codec_tag_string=[0][0][0][0]
codec_tag=0x0000
sample_fmt=s32
sample_rate=48000
channels=1
channel_layout=unknown
bits_per_sample=24
id=N/A
r_frame_rate=0/0
avg_frame_rate=0/0
time_base=1/48000
start_pts=0
start_time=0.000000
duration_ts=961920
duration=20.040000
bit_rate=1152000
max_bit_rate=N/A
bits_per_raw_sample=24
nb_frames=N/A
nb_read_frames=N/A
nb_read_packets=N/A
DISPOSITION:default=0
DISPOSITION:dub=0
DISPOSITION:original=0
DISPOSITION:comment=0
DISPOSITION:lyrics=0
DISPOSITION:karaoke=0
DISPOSITION:forced=0
DISPOSITION:hearing_impaired=0
DISPOSITION:visual_impaired=0
DISPOSITION:clean_effects=0
DISPOSITION:attached_pic=0
DISPOSITION:timed_thumbnails=0
TAG:file_package_umid=0x060A2B340101010501010D13130000009CDF834306CBFD4D8484467DCDB7A9AD
[/STREAM]
[STREAM]
index=6
codec_name=pcm_s24le
codec_long_name=PCM signed 24-bit little-endian
profile=unknown
codec_type=audio
codec_time_base=1/48000
codec_tag_string=[0][0][0][0]
codec_tag=0x0000
sample_fmt=s32
sample_rate=48000
channels=1
channel_layout=unknown
bits_per_sample=24
id=N/A
r_frame_rate=0/0
avg_frame_rate=0/0
time_base=1/48000
start_pts=0
start_time=0.000000
duration_ts=961920
duration=20.040000
bit_rate=1152000
max_bit_rate=N/A
bits_per_raw_sample=24
nb_frames=N/A
nb_read_frames=N/A
nb_read_packets=N/A
DISPOSITION:default=0
DISPOSITION:dub=0
DISPOSITION:original=0
DISPOSITION:comment=0
DISPOSITION:lyrics=0
DISPOSITION:karaoke=0
DISPOSITION:forced=0
DISPOSITION:hearing_impaired=0
DISPOSITION:visual_impaired=0
DISPOSITION:clean_effects=0
DISPOSITION:attached_pic=0
DISPOSITION:timed_thumbnails=0
TAG:file_package_umid=0x060A2B340101010501010D13130000009CDF834306CBFD4D8484467DCDB7A9AD
[/STREAM]
[STREAM]
index=7
codec_name=pcm_s24le
codec_long_name=PCM signed 24-bit little-endian
profile=unknown
codec_type=audio
codec_time_base=1/48000
codec_tag_string=[0][0][0][0]
codec_tag=0x0000
sample_fmt=s32
sample_rate=48000
channels=1
channel_layout=unknown
bits_per_sample=24
id=N/A
r_frame_rate=0/0
avg_frame_rate=0/0
time_base=1/48000
start_pts=0
start_time=0.000000
duration_ts=961920
duration=20.040000
bit_rate=1152000
max_bit_rate=N/A
bits_per_raw_sample=24
nb_frames=N/A
nb_read_frames=N/A
nb_read_packets=N/A
DISPOSITION:default=0
DISPOSITION:dub=0
DISPOSITION:original=0
DISPOSITION:comment=0
DISPOSITION:lyrics=0
DISPOSITION:karaoke=0
DISPOSITION:forced=0
DISPOSITION:hearing_impaired=0
DISPOSITION:visual_impaired=0
DISPOSITION:clean_effects=0
DISPOSITION:attached_pic=0
DISPOSITION:timed_thumbnails=0
TAG:file_package_umid=0x060A2B340101010501010D13130000009CDF834306CBFD4D8484467DCDB7A9AD
[/STREAM]
[STREAM]
index=8
codec_name=pcm_s24le
codec_long_name=PCM signed 24-bit little-endian
profile=unknown
codec_type=audio
codec_time_base=1/48000
codec_tag_string=[0][0][0][0]
codec_tag=0x0000
sample_fmt=s32
sample_rate=48000
channels=1
channel_layout=unknown
bits_per_sample=24
id=N/A
r_frame_rate=0/0
avg_frame_rate=0/0
time_base=1/48000
start_pts=0
start_time=0.000000
duration_ts=961920
duration=20.040000
bit_rate=1152000
max_bit_rate=N/A
bits_per_raw_sample=24
nb_frames=N/A
nb_read_frames=N/A
nb_read_packets=N/A
DISPOSITION:default=0
DISPOSITION:dub=0
DISPOSITION:original=0
DISPOSITION:comment=0
DISPOSITION:lyrics=0
DISPOSITION:karaoke=0
DISPOSITION:forced=0
DISPOSITION:hearing_impaired=0
DISPOSITION:visual_impaired=0
DISPOSITION:clean_effects=0
DISPOSITION:attached_pic=0
DISPOSITION:timed_thumbnails=0
TAG:file_package_umid=0x060A2B340101010501010D13130000009CDF834306CBFD4D8484467DCDB7A9AD
[/STREAM]

C:\Users\ctvf2tech1\Desktop\ffmpeg-20180404-2accdd3-win32-static\bin>

roderrooder
Posts: 41
Joined: Tue Jan 02, 2018 10:41 am

Re: XDCAM to H264 frame problem

Post by roderrooder » Tue Apr 17, 2018 2:05 am

Was making sure there weren't any factional framerates at play, the clip is definitely a solid 25 fps and exactly 20 seconds and 1 frame long.

I should have requested this up front but could you convert the file to .mp4 like you've been trying:

Code: Select all

ffmpeg -i test.mxf -c:v libx264 -b:v 6000k -an out.mp4
And then analyze the new file you created with the same command you analyzed the original file with:

Code: Select all

ffprobe -i test.mp4 -show_streams
And paste the output here again? Sorry for having you run in circles.

momocampo
Posts: 7
Joined: Wed Apr 04, 2018 12:17 pm

Re: XDCAM to H264 frame problem

Post by momocampo » Tue Apr 17, 2018 2:47 pm

Hello Rode,

No problem, don't worry. It's already really kind to help me to understand my problem.
So, here is the result for analyse "out.mp4"
Thanks a lot.
C:\Users\ctvf2tech1\Desktop\ffmpeg-20180404-2accdd3-win32-static\bin>ffprobe -i out.mp4 -show_streams
ffprobe version N-90610-g2accdd3871 Copyright (c) 2007-2018 the FFmpeg developers
built with gcc 7.3.0 (GCC)
configuration: --enable-gpl --enable-version3 --enable-sdl2 --enable-bzlib --enable-fontconfig --enable-gnutls --enable-iconv --enable-libass --enab
le-libbluray --enable-libfreetype --enable-libmp3lame --enable-libopencore-amrnb --enable-libopencore-amrwb --enable-libopenjpeg --enable-libopus --en
able-libshine --enable-libsnappy --enable-libsoxr --enable-libtheora --enable-libtwolame --enable-libvpx --enable-libwavpack --enable-libwebp --enable
-libx264 --enable-libx265 --enable-libxml2 --enable-libzimg --enable-lzma --enable-zlib --enable-gmp --enable-libvidstab --enable-libvorbis --enable-l
ibvo-amrwbenc --enable-libmysofa --enable-libspeex --enable-libxvid --enable-libaom --enable-libmfx --enable-amf --enable-ffnvcodec --enable-cuvid --e
nable-d3d11va --enable-nvenc --enable-nvdec --enable-dxva2 --enable-avisynth
libavutil 56. 13.100 / 56. 13.100
libavcodec 58. 17.100 / 58. 17.100
libavformat 58. 10.100 / 58. 10.100
libavdevice 58. 2.100 / 58. 2.100
libavfilter 7. 14.100 / 7. 14.100
libswscale 5. 0.102 / 5. 0.102
libswresample 3. 0.101 / 3. 0.101
libpostproc 55. 0.100 / 55. 0.100
Input #0, mov,mp4,m4a,3gp,3g2,mj2, from 'out.mp4':
Metadata:
major_brand : isom
minor_version : 512
compatible_brands: isomiso2avc1mp41
encoder : Lavf58.10.100
Duration: 00:00:20.04, start: 0.000000, bitrate: 18383 kb/s
Stream #0:0(und): Video: h264 (High 4:2:2) (avc1 / 0x31637661), yuv422p, 1920x1080 [SAR 1:1 DAR 16:9], 18380 kb/s, 25 fps, 25 tbr, 12800 tbn, 50 t
bc (default)
Metadata:
handler_name : VideoHandler
timecode : 09:59:45:00
Stream #0:1(eng): Data: none (tmcd / 0x64636D74), 0 kb/s
Metadata:
handler_name : TimeCodeHandler
timecode : 09:59:45:00
Unsupported codec with id 0 for input stream 1
[STREAM]
index=0
codec_name=h264
codec_long_name=H.264 / AVC / MPEG-4 AVC / MPEG-4 part 10
profile=High 4:2:2
codec_type=video
codec_time_base=1/50
codec_tag_string=avc1
codec_tag=0x31637661
width=1920
height=1080
coded_width=1920
coded_height=1088
has_b_frames=2
sample_aspect_ratio=1:1
display_aspect_ratio=16:9
pix_fmt=yuv422p
level=40
color_range=unknown
color_space=unknown
color_transfer=unknown
color_primaries=unknown
chroma_location=left
field_order=unknown
timecode=N/A
refs=1
is_avc=true
nal_length_size=4
id=N/A
r_frame_rate=25/1
avg_frame_rate=25/1
time_base=1/12800
start_pts=0
start_time=0.000000
duration_ts=256512
duration=20.040000
bit_rate=18380835
max_bit_rate=N/A
bits_per_raw_sample=8
nb_frames=501
nb_read_frames=N/A
nb_read_packets=N/A
DISPOSITION:default=1
DISPOSITION:dub=0
DISPOSITION:original=0
DISPOSITION:comment=0
DISPOSITION:lyrics=0
DISPOSITION:karaoke=0
DISPOSITION:forced=0
DISPOSITION:hearing_impaired=0
DISPOSITION:visual_impaired=0
DISPOSITION:clean_effects=0
DISPOSITION:attached_pic=0
DISPOSITION:timed_thumbnails=0
TAG:language=und
TAG:handler_name=VideoHandler
TAG:timecode=09:59:45:00
[/STREAM]
[STREAM]
index=1
codec_name=unknown
codec_long_name=unknown
profile=unknown
codec_type=data
codec_tag_string=tmcd
codec_tag=0x64636d74
id=N/A
r_frame_rate=0/0
avg_frame_rate=25/1
time_base=1/12800
start_pts=0
start_time=0.000000
duration_ts=256512
duration=20.040000
bit_rate=1
max_bit_rate=N/A
bits_per_raw_sample=N/A
nb_frames=1
nb_read_frames=N/A
nb_read_packets=N/A
DISPOSITION:default=0
DISPOSITION:dub=0
DISPOSITION:original=0
DISPOSITION:comment=0
DISPOSITION:lyrics=0
DISPOSITION:karaoke=0
DISPOSITION:forced=0
DISPOSITION:hearing_impaired=0
DISPOSITION:visual_impaired=0
DISPOSITION:clean_effects=0
DISPOSITION:attached_pic=0
DISPOSITION:timed_thumbnails=0
TAG:language=eng
TAG:handler_name=TimeCodeHandler
TAG:timecode=09:59:45:00
[/STREAM]

C:\Users\ctvf2tech1\Desktop\ffmpeg-20180404-2accdd3-win32-static\bin>

Post Reply