cannot mux rmvb

Website, builds, or other suggestions.
Post Reply
jhsxy2005
Posts: 2
Joined: Tue Jan 10, 2017 2:43 pm

cannot mux rmvb

Post by jhsxy2005 » Tue Jan 10, 2017 2:47 pm

ffmpeg started on 2017-01-10 at 22:33:34
Report written to "ffmpeg-20170110-223334.log"
Command line:
ffmpeg -i "C:\\Users\\jhsxy2005\\Desktop\\(hzfx8)[DMZJ][\xb9\xd6][ayakashi][06][GB][RV10].rmvb" -i "C:\\Users\\jhsxy2005\\Desktop\\t.txt" -c copy -f rm "C:\\Users\\jhsxy2005\\Desktop\\[SC-OL][Kaiji2][08][GB][RV10][88X].rmvb" -report
ffmpeg version N-81989-g7845c13 Copyright (c) 2000-2016 the FFmpeg developers
built with gcc 5.4.0 (GCC)
configuration: --enable-gpl --enable-version3 --disable-w32threads --enable-dxva2 --enable-libmfx --enable-nvenc --enable-avisynth --enable-bzlib --enable-libebur128 --enable-fontconfig --enable-frei0r --enable-gnutls --enable-iconv --enable-libass --enable-libbluray --enable-libbs2b --enable-libcaca --enable-libfreetype --enable-libgme --enable-libgsm --enable-libilbc --enable-libmodplug --enable-libmp3lame --enable-libopencore-amrnb --enable-libopencore-amrwb --enable-libopenh264 --enable-libopenjpeg --enable-libopus --enable-librtmp --enable-libschroedinger --enable-libsnappy --enable-libsoxr --enable-libspeex --enable-libtheora --enable-libtwolame --enable-libvidstab --enable-libvo-amrwbenc --enable-libvorbis --enable-libvpx --enable-libwavpack --enable-libwebp --enable-libx264 --enable-libx265 --enable-libxavs --enable-libxvid --enable-libzimg --enable-lzma --enable-decklink --enable-zlib
libavutil 55. 32.100 / 55. 32.100
libavcodec 57. 61.103 / 57. 61.103
libavformat 57. 52.100 / 57. 52.100
libavdevice 57. 0.102 / 57. 0.102
libavfilter 6. 64.100 / 6. 64.100
libswscale 4. 1.100 / 4. 1.100
libswresample 2. 2.100 / 2. 2.100
libpostproc 54. 0.100 / 54. 0.100
Splitting the commandline.
Reading option '-i' ... matched as input file with argument 'C:\Users\jhsxy2005\Desktop\(hzfx8)[DMZJ][鎬猐[ayakashi][06][GB][RV10].rmvb'.
Reading option '-i' ... matched as input file with argument 'C:\Users\jhsxy2005\Desktop\t.txt'.
Reading option '-c' ... matched as option 'c' (codec name) with argument 'copy'.
Reading option '-f' ... matched as option 'f' (force format) with argument 'rm'.
Reading option 'C:\Users\jhsxy2005\Desktop\[SC-OL][Kaiji2][08][GB][RV10][88X].rmvb' ... matched as output file.
Reading option '-report' ... matched as option 'report' (generate a report) with argument '1'.
Finished splitting the commandline.
Parsing a group of options: global .
Applying option report (generate a report) with argument 1.
Successfully parsed a group of options.
Parsing a group of options: input file C:\Users\jhsxy2005\Desktop\(hzfx8)[DMZJ][鎬猐[ayakashi][06][GB][RV10].rmvb.
Successfully parsed a group of options.
Opening an input file: C:\Users\jhsxy2005\Desktop\(hzfx8)[DMZJ][鎬猐[ayakashi][06][GB][RV10].rmvb.
[file @ 04e1c620] Setting default whitelist 'file,crypto'
[rm @ 04e1b740] Format rm probed with size=2048 and score=100
[rm @ 04e1b740] Invalid stream index 2 for index at pos 103174187
[rm @ 04e1b740] Before avformat_find_stream_info() pos: 1073 bytes read:203922 seeks:2 nb_streams:2
[rm @ 04e1b740] All info found
[rm @ 04e1b740] After avformat_find_stream_info() pos: 5620 bytes read:236690 seeks:2 frames:6
Input #0, rm, from 'C:\Users\jhsxy2005\Desktop\(hzfx8)[DMZJ][鎬猐[ayakashi][06][GB][RV10].rmvb':
Metadata:
title : [DmzJ][Ayakashi][06][XVID][JP_CN]
author : 『DMZJ动漫之家压缩组』-rvgo
copyright : 『DMZJ动漫之家压缩组』- http://bbs.dmzj.com
comment :
ASMRuleBook : #($Bandwidth >= 0),Stream0Bandwidth = 96000, Stream1Bandwidth = 454000;
Audiences : Easy RealMedia Tool's Audience;
audioMode : music
Creation Date : 2/18/2006 21:52:01
Description : This File is Created by Easy RealMedia [email protected]!
Email : [email protected]
Generated By : Easy RealMedia Tools V1.8x
HomeWeb : http://redcheek.net
Keywords :
Modification Date: 2/18/2006 21:52:01
videoMode : sharp
Duration: 00:23:00.08, start: 0.000000, bitrate: 598 kb/s
Stream #0:0, 4, 1/1000: Audio: aac (LC) (raac / 0x63616172), 44100 Hz, stereo, fltp, 96 kb/s
Stream #0:1, 2, 1/1000: Video: rv40 (RV40 / 0x30345652), yuv420p, 640x480, 492 kb/s, 23.98 fps, 23.98 tbr, 1k tbn, 1k tbc
Successfully opened the file.
Parsing a group of options: input file C:\Users\jhsxy2005\Desktop\t.txt.
Successfully parsed a group of options.
Opening an input file: C:\Users\jhsxy2005\Desktop\t.txt.
[file @ 0575f9e0] Setting default whitelist 'file,crypto'
[tty @ 0575f420] Format tty probed with size=2048 and score=50
[tty @ 0575f420] Before avformat_find_stream_info() pos: 0 bytes read:2480 seeks:0 nb_streams:1
[tty @ 0575f420] After avformat_find_stream_info() pos: 2480 bytes read:2480 seeks:0 frames:11
Input #1, tty, from 'C:\Users\jhsxy2005\Desktop\t.txt':
Duration: 00:00:00.44, bitrate: 45 kb/s
Stream #1:0, 11, 1/25: Video: ansi, pal8, 640x400, 25 fps, 25 tbr, 25 tbn, 25 tbc
Successfully opened the file.
Parsing a group of options: output file C:\Users\jhsxy2005\Desktop\[SC-OL][Kaiji2][08][GB][RV10][88X].rmvb.
Applying option c (codec name) with argument copy.
Applying option f (force format) with argument rm.
Successfully parsed a group of options.
Opening an output file: C:\Users\jhsxy2005\Desktop\[SC-OL][Kaiji2][08][GB][RV10][88X].rmvb.
[file @ 034a7c80] Setting default whitelist 'file,crypto'
Successfully opened the file.
Output #0, rm, to 'C:\Users\jhsxy2005\Desktop\[SC-OL][Kaiji2][08][GB][RV10][88X].rmvb':
Metadata:
title : [DmzJ][Ayakashi][06][XVID][JP_CN]
author : 『DMZJ动漫之家压缩组』-rvgo
copyright : 『DMZJ动漫之家压缩组』- http://bbs.dmzj.com
comment :
ASMRuleBook : #($Bandwidth >= 0),Stream0Bandwidth = 96000, Stream1Bandwidth = 454000;
Audiences : Easy RealMedia Tool's Audience;
audioMode : music
Creation Date : 2/18/2006 21:52:01
Description : This File is Created by Easy RealMedia [email protected]!
Email : [email protected]
Generated By : Easy RealMedia Tools V1.8x
HomeWeb : http://redcheek.net
Keywords :
Modification Date: 2/18/2006 21:52:01
videoMode : sharp
encoder : Lavf57.52.100
Stream #0:0, 0, 1/1000: Video: rv40 (RV40 / 0x30345652), yuv420p, 640x480, q=2-31, 492 kb/s, 23.98 fps, 23.98 tbr, 1k tbn, 1k tbc
Stream #0:1, 0, 1/1000: Audio: aac (LC) (raac / 0x63616172), 44100 Hz, stereo, 96 kb/s
Stream mapping:
Stream #0:1 -> #0:0 (copy)
Stream #0:0 -> #0:1 (copy)
Press [q] to stop, [?] for help
cur_dts is invalid (this is harmless if it occurs once at the start per stream)
cur_dts is invalid (this is harmless if it occurs once at the start per stream)
cur_dts is invalid (this is harmless if it occurs once at the start per stream)
cur_dts is invalid (this is harmless if it occurs once at the start per stream)
cur_dts is invalid (this is harmless if it occurs once at the start per stream)
cur_dts is invalid (this is harmless if it occurs once at the start per stream)
[rm @ 033f1080] Non-monotonous DTS in output stream 0:0; previous: 0, current: 0; changing to 1. This may result in incorrect timestamps in the output file.
[rm @ 033f1080] Muxing packets larger than 64 kB (69075) is not supported
av_interleaved_write_frame(): Not yet implemented in FFmpeg, patches welcome
No more output streams to write to, finishing.
frame=12008 fps=0.0 q=-1.0 Lsize= 45311kB time=00:10:02.23 bitrate= 616.4kbits/s speed=1.87e+003x
video:37843kB audio:7007kB subtitle:0kB other streams:0kB global headers:0kB muxing overhead: 1.027131%
Input file #0 (C:\Users\jhsxy2005\Desktop\(hzfx8)[DMZJ][鎬猐[ayakashi][06][GB][RV10].rmvb):
Input stream #0:0 (audio): 25937 packets read (7175418 bytes);
Input stream #0:1 (video): 12008 packets read (38751355 bytes);
Total: 37945 packets (45926773 bytes) demuxed
Input file #1 (C:\Users\jhsxy2005\Desktop\t.txt):
Input stream #1:0 (video): 0 packets read (0 bytes);
Total: 0 packets (0 bytes) demuxed
Output file #0 (C:\Users\jhsxy2005\Desktop\[SC-OL][Kaiji2][08][GB][RV10][88X].rmvb):
Output stream #0:0 (video): 12008 packets muxed (38751355 bytes);
Output stream #0:1 (audio): 25937 packets muxed (7175418 bytes);
Total: 37945 packets (45926773 bytes) muxed
0 frames successfully decoded, 0 decoding errors
[AVIOContext @ 034a7d20] Statistics: 1 seeks, 37975 writeouts
[AVIOContext @ 033f8080] Statistics: 46767250 bytes read, 2 seeks
[AVIOContext @ 0575fac0] Statistics: 2480 bytes read, 0 seeks
Conversion failed!

Post Reply