Permission denied - Can't download m3u8 files

Steam recording with RTMPDump or FFmpeg.
Post Reply
nin
Posts: 1
Joined: Wed Jan 17, 2018 5:04 pm

Permission denied - Can't download m3u8 files

Post by nin » Wed Jan 17, 2018 5:32 pm

Guys!

I used to download the m3u8 files with ffmpeg,but I can't do this anymore as you can see

Code: Select all

C:\Windows\System32>ffmpeg -i "https://svbps-sambavideos.akamaized.net/vod/_defi
nst02_/amlst%3Astg%3B182%2C4207%2Cdfa1176249b8ac6932835d47d16accde%3Bhidden32np%
3B3WUIQ7ROZJBXYAUE2UGTSDL3KP2W4XRZ3DT34B4WDOR76EFUZCOEM63WX3F4WSKRJHNLO3N4UOATT4
UNWVBHLAZB7HPQTBZGEDICJI7XPRYU2V2VHY56A523DF2QPFO3RNYCFOLPSAD47267X6HA%21%21%21%
21/playlist.m3u8" SN050917LPE0101LPE0110LX.mp4
ffmpeg version N-89674-g57d0c24132 Copyright (c) 2000-2018 the FFmpeg developers

  built with gcc 7.2.0 (GCC)
  configuration: --enable-gpl --enable-version3 --enable-sdl2 --enable-bzlib --e
nable-fontconfig --enable-gnutls --enable-iconv --enable-libass --enable-libblur
ay --enable-libfreetype --enable-libmp3lame --enable-libopencore-amrnb --enable-
libopencore-amrwb --enable-libopenjpeg --enable-libopus --enable-libshine --enab
le-libsnappy --enable-libsoxr --enable-libtheora --enable-libtwolame --enable-li
bvpx --enable-libwavpack --enable-libwebp --enable-libx264 --enable-libx265 --en
able-libxml2 --enable-libzimg --enable-lzma --enable-zlib --enable-gmp --enable-
libvidstab --enable-libvorbis --enable-libvo-amrwbenc --enable-libmysofa --enabl
e-libspeex --enable-amf --enable-cuda --enable-cuvid --enable-d3d11va --enable-n
venc --enable-dxva2 --enable-avisynth --enable-libmfx
  libavutil      56.  7.100 / 56.  7.100
  libavcodec     58.  9.100 / 58.  9.100
  libavformat    58.  3.100 / 58.  3.100
  libavdevice    58.  0.100 / 58.  0.100
  libavfilter     7.  8.100 /  7.  8.100
  libswscale      5.  0.101 /  5.  0.101
  libswresample   3.  0.101 /  3.  0.101
  libpostproc    55.  0.100 / 55.  0.100
[hls,applehttp @ 000000f4cd089e00] Opening 'https://svbps-sambavideos.akamaized.
net/vod/_definst02_/amlst%3Astg%3B182%2C4207%2Cdfa1176249b8ac6932835d47d16accde%
3Bhidden32np%3B3WUIQ7ROZJBXYAUE2UGTSDL3KP2W4XRZ3DT34B4WDOR76EFUZCOEM63WX3F4WSKRJ
HNLO3N4UOATT4UNWVBHLAZB7HPQTBZGEDICJI7XPRYU2V2VHY56A523DF2QPFO3RNYCFOLPSAD47267X
6HA%21%21%21%21/chunklist_b297984.m3u8' for reading
[hls,applehttp @ 000000f4cd089e00] Opening 'https://svbps-sambavideos.akamaized.
net/vod/_definst02_/amlst%3Astg%3B182%2C4207%2Cdfa1176249b8ac6932835d47d16accde%
3Bhidden32np%3B3WUIQ7ROZJBXYAUE2UGTSDL3KP2W4XRZ3DT34B4WDOR76EFUZCOEM63WX3F4WSKRJ
HNLO3N4UOATT4UNWVBHLAZB7HPQTBZGEDICJI7XPRYU2V2VHY56A523DF2QPFO3RNYCFOLPSAD47267X
6HA%21%21%21%21/media_b297984_0.ts' for reading
[hls,applehttp @ 000000f4cd089e00] Opening 'https://svbps-sambavideos.akamaized.
net/vod/_definst02_/amlst%3Astg%3B182%2C4207%2Cdfa1176249b8ac6932835d47d16accde%
3Bhidden32np%3B3WUIQ7ROZJBXYAUE2UGTSDL3KP2W4XRZ3DT34B4WDOR76EFUZCOEM63WX3F4WSKRJ
HNLO3N4UOATT4UNWVBHLAZB7HPQTBZGEDICJI7XPRYU2V2VHY56A523DF2QPFO3RNYCFOLPSAD47267X
6HA%21%21%21%21/media_b297984_1.ts' for reading
Input #0, hls,applehttp, from 'https://svbps-sambavideos.akamaized.net/vod/_defi
nst02_/amlst%3Astg%3B182%2C4207%2Cdfa1176249b8ac6932835d47d16accde%3Bhidden32np%
3B3WUIQ7ROZJBXYAUE2UGTSDL3KP2W4XRZ3DT34B4WDOR76EFUZCOEM63WX3F4WSKRJHNLO3N4UOATT4
UNWVBHLAZB7HPQTBZGEDICJI7XPRYU2V2VHY56A523DF2QPFO3RNYCFOLPSAD47267X6HA%21%21%21%
21/playlist.m3u8':
  Duration: 00:30:17.52, start: 0.000000, bitrate: N/A
  Program 0
    Metadata:
      variant_bitrate : 297984
    Stream #0:0: Data: timed_id3 (ID3  / 0x20334449)
    Metadata:
      variant_bitrate : 297984
    Stream #0:1: Video: h264 (Constrained Baseline) ([27][0][0][0] / 0x001B), yu
v420p, 320x240 [SAR 1:1 DAR 4:3], 29.97 fps, 29.97 tbr, 90k tbn, 59.94 tbc
    Metadata:
      variant_bitrate : 297984
    Stream #0:2: Audio: aac (LC) ([15][0][0][0] / 0x000F), 24000 Hz, stereo, flt
p
    Metadata:
      variant_bitrate : 297984
SN050917LPE0101LPE0110LX.mp4: Permission denied

C:\Windows\System32>
Can anyone help me?

I get the url of the files if it's necessery https://files.fm/u/qqgfpvu6

Reino
Posts: 59
Joined: Thu Aug 22, 2013 5:14 pm
Contact:

Re: Permission denied - Can't download m3u8 files

Post by Reino » Fri Feb 23, 2018 2:30 pm

Why are you using Windows\System32 as output map? Use another map.

Post Reply