Eror message when adding silence to end of file

Any other question that don't fit into the other support categorizes.
Post Reply
ChrisMadog
Posts: 2
Joined: Fri Feb 27, 2015 1:55 am

Eror message when adding silence to end of file

Post by ChrisMadog » Wed Mar 04, 2015 12:14 am

Hi.

I have a question current already but I also have an odd one here too. I'm adding silence to the end of a file and get the following (snippet only).
One is a news mp3 file (5m:17s long), the other is 4 seconds of silence.
Both are at 128kbps, single channel.

= = Quote = =
[mp3 @ 036fbce0] Estimating duration from bitrate, this may be inaccurate
Input #0, mp3, from 'concat:c:\airnewsextras\News INTRO 1s.mp3|airnews_1.mp3|c:\
airnewsextras\News OUTRO 1.mp3':
Metadata:
album : 10s
title : Timepips And NEWS Intro 1
artist : News INTRO 1 without tail
date : 2015
Duration: 00:05:17.46, start: 0.023021, bitrate: 128 kb/s
Stream #0:0: Audio: mp3, 48000 Hz, mono, s16p, 128 kb/s
Metadata:
encoder : LAME3.99r
Output #0, mp3, to 'AIRNews.mp3':
Metadata:
TALB : 10s
TIT2 : Timepips And NEWS Intro 1
TPE1 : News INTRO 1 without tail
TDRC : 2015
TSSE : Lavf56.22.100
Stream #0:0: Audio: mp3, 48000 Hz, mono, 128 kb/s
Metadata:
encoder : LAME3.99r
Stream mapping:
Stream #0:0 -> #0:0 (copy)
Press [q] to stop, [?] for help
[mp3 @ 002fafe0] Audio packet of size 561 (starting with 49443303...) is invalid
, writing it anyway.

size= 4961kB time=00:05:17.42 bitrate= 128.0kbits/s
video:0kB audio:4960kB subtitle:0kB other streams:0kB global headers:0kB muxing
overhead: 0.010060%
= = UNQUOTE = =

I've bolded the bit of interest.

Regards,
Chris

Post Reply
'