Search found 94 matches

by Reino
Mon Mar 28, 2016 11:49 am
Forum: Offical Announcements
Topic: Windows XP Support And Intel QSV
Replies: 25
Views: 44908

Re: Windows XP Support And Intel QSV

@ Zeranoe: How periodically? When can we expect the first build?
by Reino
Sun Mar 27, 2016 11:00 am
Forum: Other
Topic: ffmpeg no longer works under Windows XP (possible suspect identified)
Replies: 13
Views: 24485

Re: ffmpeg no longer works under Windows XP (possible suspect identified)

2225936589 wrote:There are three similar functions also need to be modified
Could you be more specific?
by Reino
Thu Aug 29, 2013 4:21 pm
Forum: Suggestions
Topic: enable libass
Replies: 39
Views: 77334

Re: enable libass

Ok, today I spent way too much time experimenting this stuff to hardcode some subs on top of a video-stream. To begin with my final thoughts: use Avisynth! :geek: :lol: I have a couple of questions. sample.mkv: Input #0, matroska,webm, from 'sample.mkv': Duration: 00:01:00.61, start: 0.000000, bitra...
by Reino
Thu Aug 22, 2013 5:33 pm
Forum: Usage
Topic: Error parsing AAC extradata, unable to determine samplerate.
Replies: 0
Views: 3239

Error parsing AAC extradata, unable to determine samplerate.

Hello, Input #0, mpegts, Stream #0:0: Audio: aac ([15][0][0][0] / 0x000F), 48000 Hz, stereo, fltp, 181 kb/s Stream #0:1: Video: h264 (Main) ([27][0][0][0] / 0x001B), yuv420p, 608x342 [SAR 1:1 DAR 16:9], 12.50 fps, 25 tbr, 90k tbn, 50 tbc [matroska @ 03ba2ac0] Error parsing AAC extradata, unable to d...